Movie Info
Banner : PEN
Year : 2016
Cast : ‎Ajay Devgn, Erika Kaar, Abigail Eames
Video: pal
Audio : AC 3
Genre : Action, Adventure, Drama
Subtitles : NONE
Resolution :
Runtime : 2hr 47min 15sec
Source : Team IcTv

[SCREENSHOTS]

Download Link

http://rapidpaid.com/71d0ea8313d75e34/Shivaay_(2016)_Desi_Scr_-_NTSC_-_AC_3_-_Team_IcTv_Exclusive.rar

Movie Info
Banner :
Year : 2016
Cast : Kalyan Ram
Video: AVC
Audio : AAC
Genre : Action
Subtitles : None
Resolution : 768 X 576
Runtime : 01hr 35min XX
Source : Team IcTv

Download Link

http://rapidpaid.com/0628546152ef2234/Patas_(2016)_Hindi_-_576p_DTH_Hq_-_AVC_-_AAC_-_Team_IcTv_Exclusive.mp4

~~~Ek Tera Saath~~~
(2016)
Desi pre DvD Rip – XviD – [1-3] – Team IcTv Exclusive

Movie Info
Banner :
Year : 2016
Cast : Sharad Malhotra, Hritu Dudani
Video: XviD
Audio : MP 3
Genre : Drama
Subtitles : NONE
Resolution : 720 X 304
Runtime : 1hr 54min xx
Source : Team IcTv

[SCREENSHOTS]

Download Link

http://rapidpaid.com/e9f1c3ea4120cd2d/Ek_Tera_Saath_(2016)_Desi_pre_DvD_Rip_-_XviD_-_[1-3]_-_Team_IcTv_Exclusive.avi

~~~Gandhigiri ~~~
(2016)
Desi pre DvD Rip – XviD – [1-3] – Team IcTv Exclusive

Movie Info
Banner :
Year : 2016
Cast : ‎Rishi Bhutani, Dolly Chawla, Meghna Haldar
Video: XviD
Audio : MP 3
Genre : Drama
Subtitles : NONE
Resolution : 720 X 304
Runtime : 1hr 52min xx
Source : Team IcTv

[SCREENSHOTS]

Download Link

http://rapidpaid.com/6bc01ddae88218ed/Gandhigiri_(2016)_Desi_pre_DvD_Rip_-_XviD_-_[1-3]_-_Team_IcTv_Exclusive.avi


Ratings: 7.2/10

Genere: Action, Adventure, Drama

General
Unique ID : 230883987176652900945938843190421352260 (0xADB2A37200DD2220904A12D02F7FEF44)
Complete name : Shivaay (2016) - 1CD - Desi-PreDVD-Rip - Hindi - (No Logo) - x264 - MP3 - Mafiaking - M2Tv.mkv
Format : Matroska
Format version : Version 4 / Version 2
File size : 708 MiB
Duration : 2 h 39 min
Overall bit rate : 620 kb/s
Movie name : Shivaay (2016) - 1CD - Desi-PreDVD-Rip - Hindi - (No Logo) - x264 - MP3 - Mafiaking - M2Tv
Encoded date : UTC 2016-11-06 17:10:55
Writing application : mkvmerge v7.0.0 ('Where We Going') 32bit built on Jun 9 2014 15:08:34
Writing library : libebml v1.3.0 + libmatroska v1.4.1

Video
ID : 1
Format : AVC
Format/Info : Advanced Video Codec
Format profile : High@L3
Format settings, CABAC : Yes
Format settings, ReFrames : 3 frames
Codec ID : V_MPEG4/ISO/AVC
Duration : 2 h 39 min
Bit rate : 555 kb/s
Width : 640 pixels
Height : 272 pixels
Display aspect ratio : 2.35:1
Frame rate mode : Constant
Frame rate : 29.970 (30000/1001) FPS
Color space : YUV
Chroma subsampling : 4:2:0
Bit depth : 8 bits
Scan type : Progressive
Bits/(Pixel*Frame) : 0.106
Stream size : 633 MiB (89%)
Title : Mafiaking
Language : Hindi
Default : Yes
Forced : No

Audio
ID : 2
Format : MPEG Audio
Format version : Version 2
Format profile : Layer 3
Mode : Joint stereo
Mode extension : MS Stereo
Codec ID : A_MPEG/L3
Codec ID/Hint : MP3
Duration : 2 h 39 min
Bit rate mode : Constant
Bit rate : 64.0 kb/s
Channel(s) : 2 channels
Sampling rate : 24.0 kHz
Frame rate : 41.667 FPS (576 spf)
Compression mode : Lossy
Delay relative to video : 8 ms
Stream size : 73.1 MiB (10%)
Title : Mafiaking
Language : Hindi
Default : Yes
Forced : No

Download Link

http://rapidpaid.com/8256e9b90c912369/Shivaay_(2016)_-_1CD_-_Desi-PreDVD-Rip_-_Hindi_-_(No_Logo)_-_x264_-_MP3_-_Mafiaking_-_M2Tv.mkv

~SHIVAAY~

~> 2016 <~

*720p DesiPDvD Rip – x264 – AC3 – DUS*

[COLOR="blue"]Year.............: 2016
Ripper...........: Apka Sallu
Source...........: Atmos Ka Warehouse (Thanks Boy You Rock)
Container........: MKV
Resolution.......: 1288 x 544
Overall Bitrate..: 2687 Kbps
Audio Language...: Hindi
Run Time.........: 02hrs 39Mnts and few seconds
Audio............: AC3 5.1 @ 384 Kbps (UpMixed)
Subtitle.........: None on Source
Frame rate.......: 25 fps[/COLOR]

Download Link

http://rapidpaid.com/31fd2f275aae7992/Shivaay_(2016)_720p_DesiPDvD_Rip_-_x264_AC3_-_DUS.mkv

~SHIVAAY~

~> 2016 <~

*1CD DesiPDvD Rip – XviD – MP3 – DUS*

Year.............: 2016
Ripper...........: Apka Sallu
Source...........: Atmos Ka Warehouse (Thanks Boy You Rock)
Container........: AVI
Resolution.......: 640 x 272
Overall Bitrate..: 614 Kbps
Audio Language...: Hindi
Run Time.........: 02hrs 39Mnts and few seconds
Audio............: MP3 @ 64 Kbps
Subtitle.........: None on Source
Frame rate.......: 25 fps

Download Link

http://rapidpaid.com/0b3a3f63bf07c99d/Shivaay_(2016)_1CD_DesiPDvD_Rip_-_XviD_MP3_(Audio_Clean)_-_DUS.avi

Year.............: 2016)
Container........: MKV
Resolution.......: 720 x 304
Overall Bitrate..: 1410 Kbps
Audio Language...: Hindi
Run Time.........: 02hrs 28Mnts and few seconds
Audio............: AC3 5.1 @ 384 Kbps (UpMixed)
Subtitle.........: None on Source
Frame rate.......: 25 fps













Download Link

http://rapidpaid.com/0652b9026bf86087/Ae.Dil.Hai.Mushkil.2016.1-3.DVDSCRRip.x264.DD5.1-DUS_2.mkv

Year.............: 2016
Container........: MKV
Resolution.......: 640 x 272
Overall Bitrate..: 894 Kbps
Audio Language...: Hindi
Run Time.........: 02hrs 39Mnts and few seconds
Audio............: MP3 @ 64 Kbps
Subtitle.........: None on Source
Frame rate.......: 25 fps













Download Link

http://rapidpaid.com/ef0e89b5bff32c7c/Shivaay.2016.1GB.CAMRip.x264.MP3-DUS_2.mkv

Year.............: 2016
Container........: AVI
Resolution.......: 720 x 304
Overall Bitrate..: 1706 Kbps
Audio Language...: Hindi
Run Time.........: 02hrs 02Mnts and few seconds
Audio............: AC3 @ 384 Kbps
Subtitle.........: None on Source
Frame rate.......: 25 fps













Download Link

http://rapidpaid.com/955db4a75f902890/Tutak.Tutak.Tutiya.2016.1-3.DVDSCR.XviD.AC3-DUS.avi

© 2018 Bolly Releases Powered by WordPress using the Jishnu theme.